#TITLE:Samurai;
#SUBTITLE:;
#ARTIST:Yoji Biomehanika;
#TITLETRANSLIT:;
#SUBTITLETRANSLIT:;
#ARTISTTRANSLIT:;
#CREDIT:;
#BANNER:samurai.png;
#BACKGROUND:samurai-bg.png;
#LYRICSPATH:;
#CDTITLE:;
#MUSIC:Yoji Biomehanika - Samurai.mp3;
#OFFSET:0.000;
#SAMPLESTART:51.000;
#SAMPLELENGTH:15.000;
#SELECTABLE:YES;
#BPMS:0.000=147.140,124.000=110.360,124.500=91.960,125.000=73.560,125.500=55.160,126.000=36.760,127.500=55.160,128.000=73.560,128.500=91.960,129.000=110.360,129.500=147.160,130.000=183.960,130.500=223.760,131.000=260.560,133.000=294.280,387.000=260.560,388.500=223.760,390.500=183.960,393.000=147.160;
#STOPS:383.000=0.400
;
#BGCHANGES:;
// cache tags:
#FIRSTBEAT:0.000;
#LASTBEAT:530.000;
#SONGFILENAME:Songs/nhac/Samurai/Samurai.sm;
#HASMUSIC:1;
#HASBANNER:1;
#MUSICLENGTH:172.256;
// end cache tags

//---------------dance-single - ----------------
#NOTES:
     dance-single:
     :
     Hard:
     13:
     1.000,1.000,1.000,0.877,0.427,1041.000,186.000,151.000,0.000,158.000:
2000
0000
3020
0230
,
0302
0000
0203
0320
,
2030
0000
3020
0230
,
0302
0000
0203
0320
,
2030
0000
3020
0230
,
0302
0000
0203
0320
,
2030
0000
3020
0230
,
0302
0000
0000
0000
0000
0000
0000
0000
0203
0000
0000
0000
0320
0000
0000
0002
,
2030
0000
0103
0010
3020
0100
0230
0001
,
1302
0000
1000
0100
0203
0010
0320
1000
,
2031
0000
0001
0010
3020
0100
0230
0001
,
1302
1000
0213
0322
,
2033
0000
0100
0010
3020
0100
0230
0001
,
1302
0000
1000
0100
0203
0010
0320
1000
,
2031
0000
0001
0010
3020
0100
0230
0001
,
1302
0000
1000
0100
0203
0010
0320
0000
,
2032
0000
0113
0110
3020
1100
0230
0011
,
1302
0000
1010
0110
0203
1010
0320
1100
,
2031
0000
0011
0110
3020
1100
0230
0011
,
1302
1010
0213
0322
,
2033
0000
0110
0110
3020
1100
0230
0011
,
1302
0000
1010
0110
0203
0011
0320
1100
,
2031
0000
0101
0110
3020
0101
0230
0011
,
1302
0000
1010
0110
0203
0011
0320
0000
,
2031
0000
0110
0110
3021
1100
1230
0011
,
1302
0000
1010
0110
1203
0011
0321
1100
,
2031
0000
0101
0110
3021
0101
1230
0011
,
1302
1010
1203
0322
,
2033
0000
0110
0110
3021
1100
1230
0011
,
1302
0000
1010
0110
1203
0011
0321
1100
,
2031
0000
0101
0110
3021
0101
1230
0011
,
2302
0000
0000
0000
3003
0000
0000
1000
,
0001
1000
0001
1000
0001
1000
0001
0000
,
0000
0000
1001
0010
1000
0001
0100
0010
,
0100
1000
0011
0100
0001
0010
1100
0001
,
0010
0100
1001
0100
1000
0001
0100
0010
,
0001
0010
1100
0001
0100
1000
0011
0100
,
0001
0010
1001
0100
0001
0100
1000
0010
,
0100
1000
0011
0100
0001
0010
1100
0001
,
0100
0010
1001
0100
0001
1000
0010
0100
,
0001
0010
1100
0010
0100
1000
0011
0100
,
0010
0100
1001
0010
1000
0001
0100
0010
,
0001
0100
0011
0100
0001
0010
1100
0010
,
0100
0010
1001
0100
1000
0001
0100
0010
,
0001
0010
1100
0010
0100
1000
0011
0100
,
0010
0100
1001
0001
1000
0010
0100
0001
,
0100
1000
0011
0100
0001
0010
1100
0001
,
0010
0100
1001
0010
0100
1000
0001
0100
,
0010
0001
1100
0010
0100
1000
0011
0100
,
0001
2002
3003
0100
0001
1000
0010
0100
,
1000
0100
0011
0100
0001
0010
1100
0001
,
0100
0010
1001
0100
0001
1000
0100
1000
,
0001
0010
1100
0001
0100
1000
0011
0100
,
0001
0010
1001
0010
1000
0001
0100
0010
,
0001
0100
0011
1000
0001
0010
1100
0001
,
0100
0010
1001
0100
0001
1000
0010
0100
,
0001
0010
1100
0001
0100
1000
0011
0100
,
0001
0010
1001
0100
0001
1000
0010
0100
,
1000
0100
0011
0100
0001
0010
1100
0001
,
0100
0010
1001
0010
0001
0100
0001
1000
,
0010
0001
1100
0010
1000
0100
0011
0100
,
1000
0010
1001
0100
0001
1000
0010
0100
,
0001
1000
0011
0100
0001
0010
1100
0001
,
0100
0010
2201
0010
0010
0001
0001
0010
,
0001
0010
0001
0010
0010
0001
0010
0001
,
0001
0010
3302
0000
0010
0000
1000
0000
,
0010
1203
0010
0321
,
1000
2031
0010
0001
,
0100
3021
0000
1230
,
0010
1302
0010
0100
,
0010
1203
0010
0321
,
0100
2031
0010
0001
,
0100
3021
0100
1230
,
0001
1302
0010
0100
,
0010
1203
0010
0321
,
1000
2031
0100
0001
,
0010
3021
0100
1230
,
0001
1302
0010
1000
,
0010
1203
0010
0321
,
1000
2031
0100
0001
,
0010
3021
0100
1230
,
0001
0000
1302
0010
1000
0100
1000
0010
,
0100
0010
1203
0010
1000
0010
0321
0100
,
1000
0100
2031
0010
0100
0001
0010
0100
,
0001
0100
3021
0100
0001
1000
1230
0001
,
0010
0001
1302
0010
0100
1000
0010
0100
,
0010
0100
1203
0010
1000
0010
0321
0100
,
1000
0100
2031
0010
0100
0001
0010
0100
,
0001
0100
3021
0100
1000
0001
1230
0001
,
0010
0010
1302
0010
0100
1000
0010
0100
,
0010
1000
1203
0010
0001
1000
0321
1000
,
0100
0001
2031
0100
0001
0010
0100
0001
,
0100
0010
3021
0100
1000
0001
1230
0010
,
0001
0010
1302
0010
0100
1000
0010
0100
,
1000
0010
1203
0010
0001
1000
0321
0100
,
1000
0100
2031
0000
0000
0000
3002
0000
,
0000
0000
0000
1000
,
0000
1000
0000
0000
0000
1000
0000
1000
,
0003
0000
1001
1000
0010
0100
0001
1000
,
0010
1000
0001
0100
0010
0001
0100
1000
,
0100
1000
0001
0100
0010
0001
0100
0001
,
1000
0010
0100
1000
0001
0100
0010
0001
,
0100
1000
0010
1000
0001
0100
0001
1000
,
0010
0100
1000
0001
0100
0010
0001
0100
,
1000
0010
1000
0010
1000
0100
1000
0001
,
0100
0010
0001
1000
0010
0100
0001
1000
,
0010
0100
1001
0001
0100
0010
1000
0001
,
0100
0001
1000
0010
0100
1000
0010
0001
,
0010
0001
1000
0010
0100
1000
0010
1000
,
0001
0100
0010
0001
1000
0010
0100
1000
,
0010
0001
0100
0001
1000
0010
1000
0001
,
0100
0010
0001
1000
0010
0100
1000
0010
,
0001
0100
0001
1000
0010
0001
0010
1000
,
0010
0100
1000
0001
0100
0010
1000
0010
,
0100
0000
0010
0000
1001
0100
0010
0001
0010
1000
0001
0100
0010
1000
0001
0100
,
1000
0001
0100
0010
0001
0100
1000
0010
0100
1000
0001
0100
0010
0001
0100
1000
,
0100
1000
0001
0100
0010
0001
0100
1000
0001
0100
0010
1000
0001
0100
0010
0001
,
0100
0001
0100
1000
0010
0100
1000
0001
0100
0010
0001
0100
1000
0100
1000
0001
,
0100
0010
0001
0100
0001
0100
1000
0010
0100
0001
1000
0100
1000
0001
0100
0010
,
0001
0100
0001
1000
0010
0100
1000
0001
0100
0010
0001
0100
0001
0100
1000
0010
,
0100
1000
0001
0100
0010
0001
0100
0001
0100
1000
0010
0100
1000
0001
0100
0010
,
0001
0100
0001
0100
1000
0100
1000
0010
0001
0100
0001
1000
0010
0100
1000
0001
,
0100
0010
0001
0100
1000
0010
0100
1000
0001
0100
0010
0001
0100
1000
0100
1000
,
0001
0100
0010
0001
0100
1000
0001
0100
1000
0001
0100
0010
0001
0100
0001
1000
,
0010
0100
1000
0100
1000
0001
0100
0010
0001
0100
1000
0001
0100
0010
1000
0100
,
0001
0100
0001
0100
1000
0010
0100
1000
0001
0100
0010
0001
0100
1000
0100
1000
,
0001
0100
0010
0001
0100
0001
0010
0100
1000
0100
0010
1000
0001
0100
1000
0001
,
0100
0010
0001
0100
0001
1000
0010
0100
1000
0100
1000
0001
0100
0010
0001
0010
,
0100
0001
0100
1000
0010
0100
1000
0001
0100
0001
0100
0010
1000
0001
0100
0010
,
0001
0100
1000
0100
1000
0010
0100
0001
1000
0010
1000
0001
1000
0100
0010
0001
,
1000
0100
0010
0001
1000
0100
0010
0001
1000
0100
0010
0001
1000
0100
0010
0001
,
1000
0100
0010
0001
1000
0100
0010
0001
1000
0100
0010
0001
1000
0100
0010
0001
,
1000
0100
0010
0001
1000
0100
0010
0001
1100
0000
0000
0000
0000
0000
0000
0000
;

//---------------dance-single - Copied from----------------
#NOTES:
     dance-single:
     Copied from:
     Medium:
     9:
     0.904,1.000,0.447,0.882,0.067,861.000,77.000,152.000,0.000,94.000:
2000
0000
3020
0230
,
0302
0000
0203
0320
,
2030
0000
3020
0230
,
0302
0000
0203
0320
,
2030
0000
3020
0230
,
0302
0000
0203
0320
,
2030
0000
3020
0230
,
0302
0000
0000
0000
0000
0000
0000
0000
0203
0000
0000
0000
0320
0000
0000
0002
,
2030
0000
0103
0010
3020
0100
0230
0001
,
1302
0000
1000
0100
0203
0010
0320
1000
,
2031
0000
0001
0010
3020
0100
0230
0001
,
1302
1000
0213
0322
,
2033
0000
0100
0010
3020
0100
0230
0001
,
1302
0000
1000
0100
0203
0010
0320
1000
,
2031
0000
0001
0010
3020
0100
0230
0001
,
1302
0000
1000
0100
0203
0010
0320
0000
,
2032
0000
0103
0010
3020
0100
0230
0001
,
1302
0000
1000
0100
0203
0010
0320
1000
,
2031
0000
0001
0010
3020
0100
0230
0001
,
1302
1000
0213
0322
,
2033
0000
0100
0010
3020
0100
0230
0001
,
1302
0000
1000
0100
0203
0010
0320
1000
,
2031
0000
0001
0010
3020
0100
0230
0001
,
1302
0000
1000
0100
0203
0010
0320
0000
,
2032
0000
0103
0010
3020
0100
0230
0001
,
1302
0000
1000
0100
0203
0010
0320
1000
,
2031
0000
0001
0010
3020
0100
0230
0001
,
1302
1000
0213
0322
,
2033
0000
0100
0010
3020
0100
0230
0001
,
1302
0000
1000
0100
0203
0010
0320
1000
,
2031
0000
0001
0010
3020
0100
0230
0001
,
2302
0000
0000
0000
3003
0000
0000
1000
,
0001
1000
0001
1000
0001
1000
0001
0000
,
0000
0000
1001
0010
1000
0001
0100
0010
,
0100
1000
0010
0100
0001
0010
0100
0001
,
0010
0100
1000
0100
1000
0001
0100
0010
,
0001
0010
0100
0001
0100
1000
0010
0100
,
0001
0010
1000
0100
0001
0100
1000
0010
,
0100
1000
0001
0100
0001
0010
1000
0001
,
0100
0010
0001
0100
0001
1000
0010
0100
,
0001
0010
0100
0010
0100
1000
0010
0100
,
0010
0100
0001
0010
1000
0001
0100
0010
,
0001
0100
0010
0100
0001
0010
0100
0010
,
0100
0010
0001
0100
1000
0001
0100
0010
,
0001
0010
1000
0010
0100
1000
0001
0100
,
0010
0100
1000
0001
1000
0010
0100
0001
,
0100
1000
0001
0100
0001
0010
0100
0001
,
0010
0100
1000
0010
0100
1000
0001
0100
,
0010
0001
1000
0010
0100
1000
0010
0100
,
0001
2002
3003
0100
0001
1000
0010
0100
,
1000
0100
0010
0100
0001
0010
1000
0001
,
0100
0010
0001
0100
0001
1000
0100
1000
,
0001
0010
1000
0001
0100
1000
0001
0100
,
0001
0010
0001
0010
1000
0001
0100
0010
,
0001
0100
0010
1000
0001
0010
1000
0001
,
0100
0010
0001
0100
0001
1000
0010
0100
,
0001
0010
0100
0001
0100
1000
0010
0100
,
0001
0010
1000
0100
0001
1000
0010
0100
,
1000
0100
0001
0100
0001
0010
0100
0001
,
0100
0010
0001
0010
0001
0100
0001
1000
,
0010
0001
1000
0010
1000
0100
0010
0100
,
1000
0010
1000
0100
0001
1000
0010
0100
,
0001
1000
0010
0100
0001
0010
1000
0001
,
0100
0010
2200
0010
0010
0001
0001
0010
,
0001
0010
0001
0010
0010
0001
0010
0001
,
0001
0010
3302
0000
0010
0000
1000
0000
,
0010
1203
0010
0321
,
1000
2031
0010
0001
,
0100
3021
0000
1230
,
0010
1302
0010
0100
,
0010
1203
0010
0321
,
0100
2031
0010
0001
,
0100
3021
0100
1230
,
0001
1302
0010
0100
,
0010
1203
0010
0321
,
1000
2031
0100
0001
,
0010
3021
0100
1230
,
0001
1302
0010
1000
,
0010
1203
0010
0321
,
1000
2031
0100
0001
,
0010
3021
0100
1230
,
0001
1302
0010
1000
,
0010
1203
0010
0321
,
1000
2031
0010
0001
,
0100
3021
0000
1230
,
0010
1302
0010
0100
,
0010
1203
0010
0321
,
0100
2031
0010
0001
,
0100
3021
0100
1230
,
0001
1302
0010
0100
,
0010
1203
0010
0321
,
1000
2031
0100
0001
,
0010
3021
0100
1230
,
0001
1302
0010
1000
,
0010
1203
0010
0321
,
1000
2031
0100
3002
,
0000
0000
0000
1000
,
0000
1000
0000
0000
0000
1000
0000
1000
,
0000
0000
1003
1000
0010
0100
0001
1000
,
0010
1000
0001
0100
0010
0001
0100
1000
,
0100
1000
0001
0100
0010
0001
0100
0001
,
1000
0010
0100
1000
0001
0100
0010
0001
,
0100
1000
0010
1000
0001
0100
0001
1000
,
0010
0100
1000
0001
0100
0010
0001
0100
,
1000
0010
1000
0010
1000
0100
1000
0001
,
0100
0010
0001
1000
0010
0100
0001
1000
,
0010
0100
1001
0001
0100
0010
1000
0001
,
0100
0001
1000
0010
0100
1000
0010
0001
,
0010
0001
1000
0010
0100
1000
0010
1000
,
0001
0100
0010
0001
1000
0010
0100
1000
,
0010
0001
0100
0001
1000
0010
1000
0001
,
0100
0010
0001
1000
0010
0100
1000
0010
,
0001
0100
0001
1000
0010
0001
0010
1000
,
0010
0100
1000
0001
0100
0010
1000
0010
,
0100
0010
1001
0100
1000
0001
0100
1000
,
0001
0100
0010
0001
0100
1000
0100
0010
,
0001
1000
0100
1000
0001
0100
0001
1000
,
0010
0100
1000
0001
0100
0010
0001
0100
,
0001
1000
0100
1000
0001
0100
0010
0001
,
0100
0001
1000
0010
0100
0010
0100
1000
,
0001
0100
1000
0001
0100
0010
0001
0100
,
1000
0001
0100
1000
0001
0100
0010
1000
,
0001
0100
1000
0001
0100
0010
1000
0001
,
0100
1000
0001
0100
0010
0001
0100
0001
,
1000
0100
1000
0001
0100
0010
0001
0100
,
0001
1000
0010
0100
1000
0001
0100
0001
,
0100
1000
0010
0100
1000
0001
0100
0010
,
0001
0100
1000
0100
1000
0001
0100
0010
,
0001
0100
1000
0001
0100
0010
0001
0100
,
1000
0000
0100
0000
0001
0000
0100
0000
0010
0000
0001
0000
1000
0100
0010
0001
,
1000
0100
0010
0001
1000
0100
0010
0001
1000
0100
0010
0001
1000
0100
0010
0001
,
1000
0100
0010
0001
1000
0100
0010
0001
1000
0100
0010
0001
1000
0100
0010
0001
,
1000
0100
0010
0001
1000
0100
0010
0001
1100
0000
0000
0000
0000
0000
0000
0000
;

//---------------dance-single - ----------------
#NOTES:
     dance-single:
     :
     Easy:
     6:
     0.525,0.654,0.052,0.459,0.003,545.000,9.000,79.000,0.000,8.000:
2000
0000
3020
0230
,
0302
0000
0203
0320
,
2030
0000
3020
0230
,
0302
0000
0203
0320
,
2030
0000
3020
0230
,
0302
0000
0203
0320
,
2030
0000
3020
0230
,
0302
0000
0000
0000
0000
0000
0000
0000
0203
0000
0000
0000
0320
0000
0000
0002
,
0030
0000
0103
0010
0000
0100
0000
0001
,
1000
0000
1000
0100
0000
0010
0000
1000
,
0001
0000
0001
0010
0000
0100
0000
0001
,
1000
1000
0010
0020
,
1030
0000
0100
0010
0000
0100
0000
0001
,
1000
0000
1000
0100
0000
0010
0000
1000
,
0001
0000
0001
0010
0000
0100
0000
0001
,
1000
1000
0100
0010
,
1001
0000
0100
0010
0000
0100
0000
0001
,
1000
0000
1000
0100
0000
0010
0000
1000
,
0001
0000
0001
0010
0000
0100
0000
0001
,
1000
1000
0010
0020
,
1030
0000
0100
0010
0000
0100
0000
0001
,
1000
0000
1000
0100
0000
0010
0000
1000
,
0001
0000
0001
0010
0000
0100
0000
0001
,
1000
1000
0100
0010
,
1001
0000
0100
0010
0000
0100
0000
0001
,
1000
0000
1000
0100
0000
0010
0000
1000
,
0001
0000
0001
0010
0000
0100
0000
0001
,
1000
1000
0010
0020
,
1030
0000
0100
0010
0000
0100
0000
0001
,
1000
0000
1000
0100
0000
0010
0000
1000
,
0001
0000
0001
0010
0000
0100
0000
0001
,
2002
0000
0000
0000
3003
0000
0000
1000
,
0001
1000
0001
1000
0001
1000
0001
0000
,
0000
1001
1000
0100
,
0100
0010
0001
0100
,
0010
1000
1000
0100
,
0001
0100
0100
0010
,
0001
1000
0001
1000
,
0100
0001
0001
1000
,
0100
0001
0001
0010
,
0001
0100
0100
0010
,
0010
0001
1000
0100
,
0001
0010
0001
0100
,
0100
0001
1000
0100
,
0001
1000
0100
0001
,
0010
1000
1000
0100
,
0100
0001
0001
0100
,
0010
1000
0100
0001
,
0010
1000
0100
0010
,
0001
1001
0001
0010
,
1000
0010
0001
1000
,
0100
0001
0001
0100
,
0001
1000
0100
0001
,
0001
0001
1000
0100
,
0001
0010
0001
1000
,
0100
0001
0001
0010
,
0001
0100
0100
0010
,
0001
1000
0001
0010
,
1000
0001
0001
0100
,
0100
0001
0001
0001
,
0010
1000
1000
0010
,
1000
1000
0001
0010
,
0001
0010
0001
1000
,
0100
2200
0010
0001
,
0001
0001
0010
0010
,
0001
3302
0010
1000
,
0010
0203
0010
0320
,
1000
2030
0010
0001
,
0100
3020
0000
0230
,
0010
0302
0010
0100
,
0010
0203
0010
0320
,
0100
2030
0010
0001
,
0100
3020
0100
0230
,
0001
0302
0010
0100
,
0010
0203
0010
0320
,
1000
2030
0100
0001
,
0010
3020
0100
0230
,
0001
0302
0010
1000
,
0010
0203
0010
0320
,
1000
2030
0100
0001
,
0010
3020
0100
0230
,
0001
0302
0010
1000
,
0010
0203
0010
0320
,
1000
2030
0010
0001
,
0100
3020
0000
0230
,
0010
0302
0010
0100
,
0010
0203
0010
0320
,
0100
2030
0010
0001
,
0100
3020
0100
0230
,
0001
0302
0010
0100
,
0010
0203
0010
0320
,
1000
2030
0100
0001
,
0010
3020
0100
0230
,
0001
0302
0010
1000
,
0010
0203
0010
0320
,
1000
2030
0100
3002
,
0000
0000
0000
1000
,
0000
1000
0000
0000
0000
1000
0000
1000
,
0000
1003
0010
0001
,
0010
0001
0010
0100
,
0100
0001
0010
0100
,
1000
0100
0001
0010
,
0100
0010
0001
0001
,
0010
1000
0100
0001
,
1000
1000
1000
1000
,
0100
0001
0010
0001
,
0010
1001
0100
1000
,
0100
1000
0100
0010
,
0010
1000
0100
0010
,
0001
0010
1000
0100
,
0010
0100
1000
1000
,
0100
0001
0010
1000
,
0001
0001
0010
0010
,
0010
1000
0100
1000
,
0100
1001
1000
0100
,
0001
0010
0100
0100
,
0001
0100
0001
0001
,
0010
1000
0100
0001
,
0001
0100
0001
0010
,
0100
1000
0100
0100
,
0001
1000
0100
0001
,
1000
0100
0001
0010
,
0001
1000
0100
1000
,
0100
0001
0010
0100
,
1000
1000
0100
0001
,
0001
0010
1000
0100
,
0100
0010
1000
0100
,
0001
1000
1000
0100
,
0001
1000
0100
0001
,
1000
0000
0001
0000
0010
0000
1000
0100
,
0010
0001
1000
0100
0010
0001
1000
0100
,
0010
0001
1000
0100
0010
0001
1000
0100
,
0010
0001
1000
0100
0011
0000
0000
0000
;

//---------------dance-single - ----------------
#NOTES:
     dance-single:
     :
     Beginner:
     4:
     0.349,0.423,0.290,0.000,0.000,371.000,50.000,0.000,0.000,0.000:
1000
0000
0010
0100
,
0001
0000
0100
0010
,
1000
0000
0010
0100
,
0001
0000
0100
0010
,
1000
0000
0010
0100
,
0001
0000
0100
0010
,
1000
0000
0010
0100
,
0001
0000
0100
0010
,
0001
0000
0100
0010
0000
0100
0000
0001
,
1000
0000
1000
0100
0000
0010
0000
1000
,
0001
0000
0001
0010
0000
0100
0000
0001
,
1000
1000
0010
0000
,
1000
0000
0100
0010
0000
0100
0000
0001
,
1000
0000
1000
0100
0000
0010
0000
1000
,
0001
0000
0001
0010
0000
0100
0000
0001
,
1000
1000
0100
0010
,
1000
0000
0100
0010
0000
0100
0000
0001
,
1000
0000
1000
0100
0000
0010
0000
1000
,
0001
0000
0001
0010
0000
0100
0000
0001
,
1000
1000
0010
0000
,
1000
0000
0100
0010
0000
0100
0000
0001
,
1000
0000
1000
0100
0000
0010
0000
1000
,
0001
0000
0001
0010
0000
0100
0000
0001
,
1000
1000
0100
0010
,
0001
0000
0100
0010
0000
0100
0000
0001
,
1000
0000
1000
0100
0000
0010
0000
1000
,
0001
0000
0001
0010
0000
0100
0000
0001
,
1000
1000
0010
0000
,
1000
0000
0100
0010
0000
0100
0000
0001
,
1000
0000
1000
0100
0000
0010
0000
1000
,
0001
0000
0001
0010
0000
0100
0000
0001
,
1000
0000
0000
0000
0000
0000
0000
1000
,
0000
0001
0000
1000
0000
0001
0000
0000
,
0000
1000
0000
0000
,
0000
0010
0000
0100
,
0000
0001
0000
0000
,
0000
0100
0000
0010
,
0000
1000
0000
0000
,
0000
0010
0000
0100
,
0000
0001
0000
0000
,
0000
0100
0000
0010
,
0000
1000
0000
0000
,
0000
0010
0000
0100
,
0000
0001
0000
0000
,
0000
0100
0000
0010
,
0000
1000
0000
0000
,
0000
0010
0000
0100
,
0000
0001
0000
0000
,
0000
0100
0000
0010
,
0000
1000
0000
0000
,
0000
0010
0000
0100
,
0000
0001
0000
0000
,
0000
0100
0000
0010
,
0000
1000
0000
0000
,
0000
0010
0000
0100
,
0000
0001
0000
0000
,
0000
0100
0000
0010
,
0000
1000
0000
0000
,
0000
0010
0000
0100
,
0000
0001
0000
0000
,
0000
0100
0000
0010
,
0000
1000
0000
0000
,
0000
0010
0000
0100
,
0000
0001
0000
0000
,
0000
0000
0000
0000
,
0000
1001
0000
0000
,
0000
0011
0000
1100
,
0000
1001
0000
0000
,
0000
1100
0000
0011
,
0000
1001
0000
0000
,
0000
0011
0000
1100
,
0000
1001
0000
0000
,
0000
1100
0000
0011
,
0000
1001
0000
0000
,
0000
0011
0000
1100
,
0000
1001
0000
0000
,
0000
1100
0000
0011
,
0000
1001
0000
0000
,
0000
0011
0000
1100
,
0000
1001
0000
0000
,
0000
1100
0000
0011
,
0000
1001
0000
0000
,
0000
0011
0000
1100
,
0000
1001
0000
0000
,
0000
1100
0000
0011
,
0000
1001
0000
0000
,
0000
0011
0000
1100
,
0000
1001
0000
0000
,
0000
1100
0000
0011
,
0000
1001
0000
0000
,
0000
0011
0000
1100
,
0000
1001
0000
0000
,
0000
1100
0000
0011
,
0000
1001
0000
0000
,
0000
0011
0000
1100
,
0000
1001
0000
1001
,
0000
0000
0000
0011
,
0000
1000
0000
0000
0000
1000
0000
1000
,
0000
1000
0010
0001
,
0010
0001
0010
0100
,
0100
0001
0010
0100
,
1000
0100
0001
0010
,
0100
0010
0001
0001
,
0010
1000
0100
0001
,
1000
1000
1000
1000
,
0100
0001
0010
0001
,
0010
1001
0100
1000
,
0100
1000
0100
0010
,
0010
1000
0100
0010
,
0001
0010
1000
0100
,
0010
0100
1000
1000
,
0100
0001
0010
1000
,
0001
0001
0010
0010
,
0010
1000
0100
1000
,
0100
1001
1000
0100
,
0001
0010
0100
0100
,
0001
0100
0001
0001
,
0010
1000
0100
0001
,
0001
0100
0001
0010
,
0100
1000
0100
0100
,
0001
1000
0100
0001
,
1000
0100
0001
0010
,
0001
1000
0100
1000
,
0100
0001
0010
0100
,
1000
1000
0100
0001
,
0001
0010
1000
0100
,
0100
0010
1000
0100
,
0001
1000
1000
0100
,
0001
1000
0100
0001
,
1000
0001
0010
1000
,
0100
0010
0001
1000
,
0100
0010
0001
1000
,
0100
0010
0001
0000
;
